#TITLE:Mr. Wonderful;
#SUBTITLE:Dead Master;
#ARTIST:Smile.dk;
#TITLETRANSLIT:;
#SUBTITLETRANSLIT:;
#ARTISTTRANSLIT:;
#CREDIT:;
#BANNER:bn.jpg;
#BACKGROUND:bg.jpg;
#LYRICSPATH:;
#CDTITLE:cd.png;
#MUSIC:Mr. Wonderful.mp3;
#OFFSET:-0.592;
#SAMPLESTART:43.839;
#SAMPLELENGTH:12.000;
#SELECTABLE:YES;
#BPMS:0.000=138.737;
#STOPS:;
#BGCHANGES:;
// cache tags:
#FIRSTBEAT:0.000;
#LASTBEAT:205.500;
#SONGFILENAME:Songs/s/Mr. Wonderful (Smile.dk/Mr. Wonderful.sm;
#HASMUSIC:1;
#HASBANNER:1;
#MUSICLENGTH:89.942;
// end cache tags

//---------------dance-single - ----------------
#NOTES:
     dance-single:
     :
     Hard:
     1:
     0.815,0.800,0.656,0.300,1.000,427.000,59.000,27.000,0.000,0.000:
0002
0003
1000
0010
0000
0010
0000
0100
0001
0000
1000
0000
0000
0010
0000
0010
,
0000
0100
0001
0000
0001
0000
1000
0000
0010
0010
0000
0100
0002
0000
0000
0000
,
0003
0010
0000
1000
0010
0000
0010
0100
0000
2000
0000
0000
0000
3010
0000
0010
,
0100
0000
1000
0002
0000
0000
0000
0000
0000
0000
0003
0000
0110
0000
0010
0000
,
0000
1000
0010
0010
0000
0100
0001
0001
0000
1000
0020
0000
0000
0000
0130
0000
,
0001
0000
0001
1000
0000
0010
0010
0100
0000
0001
0000
1000
0000
0010
0020
0000
,
0000
0030
0001
0000
0000
0001
0000
0001
0000
0001
0000
0000
0000
0001
0000
0000
,
0010
0000
0010
0000
0010
0000
0000
0010
0000
0010
0000
0100
0010
0000
0000
0000
,
0010
0100
0010
0000
0010
0000
1001
0000
0001
0000
0001
0000
0001
0000
0010
0000
,
1000
0000
0010
0000
0100
0000
0010
0000
0010
0000
1000
0000
0010
0000
0000
0110
,
0000
0000
0100
0000
0000
0000
0100
0010
0000
0000
0100
0000
0010
0000
0000
0000
,
0000
0000
0010
0000
0000
0000
0001
0000
0001
0001
0000
0000
0001
0010
0020
0000
,
2030
0000
0000
3000
0010
0000
0200
0000
0000
0010
0300
0010
0000
0001
0010
0000
,
0000
0000
0010
0000
0000
0000
0010
0010
0100
0000
0010
0000
0010
1000
0000
0010
,
0110
0000
0010
0000
0100
0001
0000
1000
0010
0000
0010
0100
0000
2000
0000
0000
,
3000
0200
0000
0000
0000
0000
0000
0000
0000
0300
0010
0000
0001
0010
0000
1000
,
0000
0100
0010
0000
0010
0000
0200
0000
0000
0000
0300
0010
0000
0011
1000
0000
,
0100
0010
0000
0010
0000
0001
0010
0000
1000
0100
0010
0010
0000
0100
0010
0001
,
0010
0000
0100
1000
0000
0010
0000
0010
0000
0010
0010
0000
1001
0000
0010
0000
,
0000
0100
1000
0100
0010
0000
0001
0010
0000
1100
0000
0100
0010
0000
0010
0001
,
0002
0010
1003
0000
0200
0000
0000
0000
0000
0000
0000
0300
0010
0001
0010
1000
,
0100
0000
0010
0000
0001
0010
0100
0010
0000
0010
0100
1000
0200
0000
0000
0000
,
0310
0000
0010
0001
0010
0000
1000
0100
0010
0000
0010
0000
0011
0000
0100
1000
,
0200
0000
0010
0000
0310
0000
0011
0000
1000
0000
0100
0010
0020
0000
0000
0000
,
0030
0001
0010
0000
0200
0000
0000
0000
0310
0000
0020
0000
0000
0030
0000
0001
,
0010
0000
0000
0101
0101
0000
0010
1000
0000
0001
0110
0000
0001
1000
0010
0100
,
0000
1001
0000
0110
0000
0101
0000
0110
0000
1001
0000
0101
0000
0000
0101
0000
,
0000
0001
1000
0000
1000
0001
0000
0110
0000
0101
0000
1001
0000
0000
0110
0000
,
1001
0000
0110
0000
0101
0000
0002
0000
0000
0000
0013
0000
0010
0100
0001
1000
,
0000
0010
0100
0101
0000
0000
1001
0000
0110
0000
0101
0000
0101
0000
0000
0000
,
1010
0000
1001
0000
0110
0000
1001
0000
0110
0000
1001
0000
0000
0110
0000
1001
,
0000
0000
0110
0000
0110
0000
0000
1001
0000
0000
0110
0000
0101
0000
0101
0000
,
0000
0110
0000
1001
0000
0001
0100
0101
0000
0000
0101
0001
0100
0000
0001
0000
,
0001
0000
0001
0000
0001
0000
1000
0010
0010
0000
0010
0000
0010
0000
0100
0000
,
0101
0001
0000
1000
0000
0010
0000
0010
0100
0000
0100
0000
0001
0000
0001
0000
,
1010
0000
0010
0000
0010
0000
0101
0000
0001
0000
1000
0010
0000
0010
0100
0000
,
0001
0001
0000
1001
0000
0001
0000
0001
0100
0000
0010
0000
1010
0000
0001
0000
,
0001
0000
0100
0010
0000
0010
0000
0010
0000
1000
0010
0010
0000
0100
0001
0000
,
0101
0000
0001
0000
1000
0010
0000
0010
0000
0100
0001
0000
0101
0000
0000
0010
,
0010
0000
1000
0010
0000
0001
0000
0100
0001
0000
0101
0000
0010
0000
0010
0000
,
1000
0010
0000
0010
0000
0100
0001
0000
1000
0100
0010
0000
0010
0000
0100
0000
,
0002
0000
0000
0000
0013
0010
0000
0100
1000
0000
0100
0010
0000
0010
0100
0000
,
0010
0000
0001
0010
0000
0100
0010
0000
0010
1000
0100
0010
0000
0010
0000
0200
,
0000
0000
0000
0310
0000
0010
0000
0100
0010
0000
0001
0010
1000
0000
0100
0000
,
0010
0000
0010
0100
0001
0010
1000
0000
0100
0000
0010
0010
0000
0001
0010
0000
,
0200
0000
0000
0310
0000
0010
0000
0100
2000
0000
0100
3010
0010
0000
0100
0000
,
0000
0010
0000
0010
0100
1000
0100
0010
0000
0110
0000
1000
0001
0110
0000
0000
,
0020
0000
0000
0130
0000
0000
0001
0000
0001
1000
0000
0100
0010
0000
0010
0200
,
0000
0000
0310
0000
0010
0000
0000
1000
0001
0010
0000
0100
0010
0000
0010
0000
,
0001
0000
0000
0010
0000
0010
0000
0010
0000
0000
0001
0000
0001
0000
0001
0000
,
0000
0010
0010
0000
0000
0001
0000
0001
0000
0020
0000
0000
0000
0000
0000
0000
,
0000
0000
0000
0030
0000
0000
0000
0000
;
